conanlcg
超级版主

[更 早] [欧美] [剧情] [BD-1080P] 金钱本色 The.Color.of.Money.1986.iNTERNAL.1080p.BluRay.x264-MOOVEE 12.00GB

-->

帖子完整标题:金钱本色 The.Color.of.Money.1986.iNTERNAL.1080p.BluRay.x264-MOOVEE 12.00GB




◎译  名 金钱本色
◎片  名 The Color of Money
◎年  代 1986
◎产  地 美国
◎类  别 剧情 / 运动
◎语  言 英语
◎上映日期 1986-10-17
◎IMDb评分 7.0/10 from 67887 users
◎IMDb链接 http://www.imdb.com/title/tt0090863
◎豆瓣评分 7.3/10 from 2993 users
◎豆瓣链接 https://movie.douban.com/subject/1297692/
◎片  长 119 分钟
◎导  演 Martin Scorsese
◎编  剧 Richard Price
◎主  演 Paul Newman
      Tom Cruise
      Mary Elizabeth Mastrantonio
      Helen Shaver
      John Turturro


◎标  签 美国 | 马丁·斯科塞斯 | TomCruise | MartinScorsese | 剧情 | PaulNewman | 1986 | 美国电影

◎简  介

  在经营了多年的桌球室里,艾迪(保罗·纽曼 Paul Newman饰)发现了一个优质的桌球苗子——文森(汤姆·克鲁斯 Tom Cruise饰)。文森暗藏着艾迪当年在桌球台上的风采,令艾迪决心收他为徒,助他在桌球事业上大显身手。于是,艾迪、文森和文森的女友,一同前往大西洋城参加大赛。
一路上,文森参加了不少小型比赛,虽然和艾迪之间不断有分歧,但也赢回不少金钱。同时,艾迪在培养文森的过程中,内心对桌球的热爱又重新被唤起,他重新拿起球杆,不料却败北而归。失落的艾迪决定离开文森,一个人苦练球技重振雄风。当踌躇满怀的艾迪重回大西洋赛场,却发现文森成为了自己的对手。
此时的文森对金钱的追求,已经远远超过了桌球本身。艾迪和文森的比赛成为一场尊严与金钱之战。

◎获奖情况

  第59届奥斯卡金像奖(1987)
  最佳男主角 保罗·纽曼
  最佳女配角(提名) 玛丽·伊丽莎白·马斯特兰托尼奥
  最佳改编剧本(提名) 理查德·普莱斯
  最佳艺术指导(提名) Boris Leven / Karen O'Hara



Video
ID : 1
Format : AVC
Format/Info : Advanced Video Codec
Format profile : [email protected]
Format settings, CABAC : Yes
Format settings, ReFrames : 4 frames
Codec ID : V_MPEG4/ISO/AVC
Duration : 1h 59mn
Bit rate : 9 831 Kbps
Width : 1 920 pixels
Height : 1 038 pixels
Display aspect ratio : 1.85:1
Frame rate mode : Constant
Frame rate : 23.976 (24000/1001) fps
Color space : YUV
Chroma subsampling : 4:2:0
Bit depth : 8 bits
Scan type : Progressive
Bits/(Pixel*Frame) : 0.206
Stream size : 8.22 GiB (68%)
Writing library : x264 core 148 r2762 90a61ec
Encoding settings : cabac=1 / ref=4 / deblock=1:-3:-3 / analyse=0x3:0x133 / me=umh / subme=9 / psy=1 / psy_rd=1.00:0.00 / mixed_ref=1 / me_range=16 / chroma_me=1 / trellis=2 / 8x8dct=1 / cqm=0 / deadzone=21,11 / fast_pskip=1 / chroma_qp_offset=-2 / threads=18 / lookahead_threads=1 / sliced_threads=0 / nr=0 / decimate=1 / interlaced=0 / bluray_compat=0 / constrained_intra=0 / bframes=3 / b_pyramid=2 / b_adapt=2 / b_bias=0 / direct=3 / weightb=1 / open_gop=0 / weightp=2 / keyint=250 / keyint_min=23 / scenecut=40 / intra_refresh=0 / rc_lookahead=60 / rc=crf / mbtree=1 / crf=17.0 / qcomp=0.60 / qpmin=0 / qpmax=69 / qpstep=4 / ip_ratio=1.40 / aq=1:0.70
Language : English
Default : Yes
Forced : No

Audio
ID : 2
Format : DTS
Format/Info : Digital Theater Systems
Format profile : MA / Core
Mode : 16
Format settings, Endianness : Big
Codec ID : A_DTS
Duration : 1h 59mn
Bit rate mode : Variable / Constant
Bit rate : 4 504 Kbps / 1 509 Kbps
Channel(s) : 6 channels
Channel positions : Front: L C R, Side: L R, LFE
Sampling rate : 48.0 KHz
Frame rate : 93.750 fps (512 spf)
Bit depth : 24 bits
Compression mode : Lossless / Lossy
Stream size : 3.76 GiB (31%)
Title : English
Language : English
Default : Yes
Forced : No

Text #1
ID : 3
Format : PGS
Muxing mode : zlib
Codec ID : S_HDMV/PGS
Codec ID/Info : Picture based subtitle format used on BDs/HD-DVDs
Duration : 1h 58mn
Bit rate : 12.0 Kbps
Count of elements : 3266
Stream size : 10.2 MiB (0%)
Title : English
Language : English
Default : No
Forced : No

Text #2
ID : 4
Format : PGS
Muxing mode : zlib
Codec ID : S_HDMV/PGS
Codec ID/Info : Picture based subtitle format used on BDs/HD-DVDs
Duration : 1h 55mn
Bit rate : 10.0 Kbps
Count of elements : 2858
Stream size : 8.26 MiB (0%)
Title : Spanish
Language : Spanish
Default : No
Forced : No

Menu
00:00:00.000 : en:00:00:00.000
00:04:50.081 : en:00:04:50.081
00:06:09.703 : en:00:06:09.703
00:09:37.786 : en:00:09:37.786
00:14:19.442 : en:00:14:19.442
00:18:26.188 : en:00:18:26.188
00:21:46.972 : en:00:21:46.972
00:26:19.495 : en:00:26:19.495
00:32:21.857 : en:00:32:21.857
00:37:23.908 : en:00:37:23.908
00:39:11.558 : en:00:39:11.558
00:46:40.006 : en:00:46:40.006
00:53:57.943 : en:00:53:57.943
01:03:40.275 : en:01:03:40.275
01:07:08.316 : en:01:07:08.316
01:10:18.714 : en:01:10:18.714
01:19:59.086 : en:01:19:59.086
01:22:10.175 : en:01:22:10.175
01:28:33.016 : en:01:28:33.016
01:35:57.335 : en:01:35:57.335
01:39:00.685 : en:01:39:00.685
01:53:19.793 : en:01:53:19.793
01:54:59.101 : en:01:54:59.101
01:56:08.378 : en:01:56:08.378





1 个附件 售价 大小 下载 时间

The.Color.of.Money.1986.iNTERNAL.1080p.BluRay.x264-MOOVEE.torrent 0 金币 60.64K 819 次 2月前

#1楼
发帖时间:2019-06-13 02:21:17   |   回复数:2
liyouchai
隐世仙人♂
谢谢楼主分享资源
2月前 #2楼
911degrees
隐世仙人♂
非常感谢,谢谢分享
2月前 #3楼
游客组