conanlcg
超级版主

[更 早] [日本] [动作] [BD-1080P] 最终幻想7:圣子降临 Final.Fantasy.VII.Advent.Children.Complete.2005.1080p.BluRay.x264-aBD

-->

帖子完整标题:最终幻想7:圣子降临 Final.Fantasy.VII.Advent.Children.Complete.2005.1080p.BluRay.x264-aBD 7.95GB




◎译  名 最终幻想7:圣子降临 / FFVII ACC / Final Fantasy VII: Advent Children / 最终幻想7:圣童降临 / 最终幻想7:归来之子 / 最终幻想7:降临之子
◎片  名 ファイナルファンタジーVII アドベントチルドレン
◎年  代 2005
◎产  地 日本
◎类  别 动作 / 科幻 / 动画 / 惊悚
◎语  言 日语 / 英语
◎上映日期 2005-09-14(日本)
◎IMDb评分 7.3/10 from 53278 users
◎IMDb链接 http://www.imdb.com/title/tt0385700
◎豆瓣评分 8.2/10 from 46931 users
◎豆瓣链接 https://movie.douban.com/subject/1422063/
◎片  长 101 分钟
◎导  演 野村哲也 Tetsuya Nomura / 野末武志
◎编  剧 野岛一成
◎主  演 樱井孝宏 Takahiro Sakurai
      伊藤步 Ayumi Ito
      森久保祥太郎 Shotaro Morikubo
      森川智之 Toshiyuki Morikawa
      坂本真绫 Maaya Sakamoto
      大川透 T?ru ?kawa
      藤原启治 Keiji Fujiwara
      楠大典 Taiten Kusunoki
      岸祐二 Y?ji Kishi
      乃村健次 Kenji Nomura
      铃木省吾 Shōgo Suzuki
      小林正宽 Masahiro Kobayashi
      山路和弘 Kazuhiro Yamaji
      嘉数由美 Yumi Kakazu
      石川英郎 Hideo Ishikawa
      市村正亲 Masachika Ichimura
      诸星堇 Sumire Morohoshi
      诹访部顺一 Junichi Suwabe
      丰口惠美 Megumi Toyoguchi
      银河万丈 Banj? Ginga
      铃村健一 Kenichi Suzumura
      田村睦心 Mutsumi Tamura
      日笠阳子 Yoko Hikasa
      森田成一 Masakazu Morita


◎标  签 ANIME | 最终幻想 | 动画 | 日本 | CG | 科幻 | 日本动画 | 动漫

◎简  介

  赛菲罗斯的事件已经过去2年了,人类从巨大陨石的灾难之下逃脱。曾经繁荣的都市虽然满目疮痍,但人们已经开始投入重建家园的工作之中。而拯救世界的英雄克劳德,却过着与世隔绝的生活。
但是,神秘的疾病“星痕症候群”在世界蔓延。蒂法?洛克哈特决定找寻克劳德。但当她找到克劳德之时,眼前这个人,只是一个为艾利斯之死郁郁寡欢的落魄男子。
以继承赛菲罗斯的遗志而组成的白发三人组出现在人们眼前,文森特不得不再次挥动双枪,保护大家。而世界的英雄,克劳德,能否再次振作,守护这个世界呢?

Video
ID : 1
Format : AVC
Format/Info : Advanced Video Codec
Format profile : [email protected]
Format settings : CABAC / 4 Ref Frames
Format settings, CABAC : Yes
Format settings, ReFrames : 4 frames
Codec ID : V_MPEG4/ISO/AVC
Duration : 2 h 6 min
Bit rate : 8 356 kb/s
Width : 1 920 pixels
Height : 1 080 pixels
Display aspect ratio : 16:9
Frame rate mode : Constant
Frame rate : 23.976 FPS
Color space : YUV
Chroma subsampling : 4:2:0
Bit depth : 8 bits
Scan type : Progressive
Bits/(Pixel*Frame) : 0.168
Stream size : 7.22 GiB (91%)
Writing library : x264 core 67 r1137M 1fda882
Encoding settings : cabac=1 / ref=4 / deblock=1:-1:-1 / analyse=0x3:0x113 / me=umh / subme=7 / psy_rd=1.0:0.0 / mixed_ref=1 / me_range=16 / chroma_me=1 / trellis=2 / 8x8dct=1 / cqm=0 / deadzone=21,11 / chroma_qp_offset=-2 / threads=6 / nr=0 / decimate=1 / mbaff=0 / bframes=3 / b_pyramid=0 / b_adapt=2 / b_bias=0 / direct=3 / wpredb=1 / keyint=250 / keyint_min=25 / scenecut=40 / rc=2pass / bitrate=8356 / ratetol=1.0 / qcomp=0.60 / qpmin=10 / qpmax=51 / qpstep=4 / cplxblur=20.0 / qblur=0.5 / vbv_maxrate=50000 / vbv_bufsize=50000 / ip_ratio=1.40 / pb_ratio=1.30 / aq=1:1.00
Language : Japanese
Default : Yes
Forced : No

Audio
ID : 2
Format : AC-3
Format/Info : Audio Coding 3
Commercial name : Dolby Digital
Codec ID : A_AC3
Duration : 2 h 6 min
Bit rate mode : Constant
Bit rate : 640 kb/s
Channel(s) : 6 channels
Channel layout : L R C LFE Ls Rs
Sampling rate : 48.0 kHz
Frame rate : 31.250 FPS (1536 SPF)
Bit depth : 16 bits
Compression mode : Lossy
Stream size : 579 MiB (7%)
Language : Japanese
Service kind : Complete Main
Default : Yes
Forced : No

Text
ID : 3
Format : UTF-8
Codec ID : S_TEXT/UTF8
Codec ID/Info : UTF-8 Plain Text
Language : English
Default : Yes
Forced : No





1 个附件 售价 大小 下载 时间

Final.Fantasy.VII.Advent.Children.Complete.2005.1080p.BluRay.x264-aBD.torrent 0 金币 40.25K 1295 次 3天前

#1楼
发帖时间:2019-06-13 01:47:14   |   回复数:5
liyouchai
超凡入圣№
谢谢楼主分享资源
3天前 #2楼
jokingcheung
一代宗师
谢谢分享
3天前 #3楼
911degrees
隐世仙人♂
非常感谢,谢谢分享
2天前 #4楼
Eurus
武林高手
当年最爱的一部电影,中二了一阵子就是因为这个
2天前 #5楼
chenfan2833
无名小卒
能不能够提供百度网盘下载的啊
2天前 #6楼
游客组