conanlcg
超级版主

[更 早] [欧美] [喜剧] [BD-Remux] 女笨贼计中计/老爸!我被绑架了 Excess.Baggage.1997.1080p.BluRay.REMUX.AVC.DD5.1-FGT 21.24GB

-->

帖子完整标题:女笨贼计中计/老爸!我被绑架了 Excess.Baggage.1997.1080p.BluRay.REMUX.AVC.DD5.1-FGT 21.24GB




◎译  名 女笨贼计中计 / 老爸!我被绑架了 / 超载行李
◎片  名 Excess Baggage
◎年  代 1997
◎产  地 美国
◎类  别 喜剧 / 动作 / 爱情 / 犯罪
◎语  言 英语
◎上映日期 1997-08-29
◎IMDb评分 5.3/10 from 12007 users
◎IMDb链接 http://www.imdb.com/title/tt0119086
◎豆瓣评分 6.6/10 from 159 users
◎豆瓣链接 https://movie.douban.com/subject/1298279/
◎片  长 101 分钟
◎导  演 马可·布拉姆贝拉 Marco Brambilla
◎编  剧 迪克·克莱蒙特 Dick Clement / 伊安·拉·弗雷奈斯 Ian La Frenais / 麦克斯·亚当斯 Max Adams
◎主  演 本尼西奥·德尔·托罗 Benicio del Toro
      克里斯托弗·沃肯 Christopher Walken
      艾丽西亚·希尔维斯通 Alicia Silverstone


◎标  签 喜剧 | 美国 | 爱情 | 本尼西奥·德托罗/Benicio | 美国电影 | 1997 | 犯罪 | 黑色

◎简  介

  艾米丽(艾丽西亚·希尔维斯通 饰)是一个寂寞的富家女孩,为了让忙碌的老爸多看她一眼,她愿意用尽任何手段。当她使出浑身解数却仍引不起爸爸的注意时,艾米丽决定自导自演一出绑架案:她先用变声器打了一通勒索电话,写下赎金的纸条,然后把自己用胶带捆绑后,跳进老爸BMW的车箱中。没想到,计谋还没成功,这辆车就被偷了,麻烦这才开始呢,当偷车贼文森(本尼西奥·德尔·托罗 饰)发现艾米丽在车箱中时,想尽办法要甩掉她,因为他一点也不想和这个愚蠢绑架案有瓜葛,但是,无处可去的艾米丽决心紧跟着文生,在朝夕相处的过程中,两人竟然情不自禁的爱上了对方!此时,两个警探紧追在他们的身后,这一对小情侣要如何结束这一桩怪异、浪漫又乌龙的“绑架案”呢?此片是艾丽西亚·希尔维斯通自组制作公司的第一部影片,她的美貌与演技同为此片的焦点,另有克里斯托弗·沃肯等人的参与演出。

Video
ID : 1
Format : AVC
Format/Info : Advanced Video Codec
Format profile : [email protected]
Format settings : CABAC / 4 Ref Frames
Format settings, CABAC : Yes
Format settings, ReFrames : 4 frames
Codec ID : V_MPEG4/ISO/AVC
Duration : 1 h 41 min
Bit rate mode : Variable
Bit rate : 29.7 Mb/s
Maximum bit rate : 35.0 Mb/s
Width : 1 920 pixels
Height : 1 080 pixels
Display aspect ratio : 16:9
Frame rate mode : Constant
Frame rate : 23.976 (24000/1001) FPS
Standard : NTSC
Color space : YUV
Chroma subsampling : 4:2:0
Bit depth : 8 bits
Scan type : Progressive
Bits/(Pixel*Frame) : 0.597
Stream size : 21.0 GiB (99%)
Title : Excess.Baggage.1997.1080p.BluRay.REMUX.AVC.DD5.1-FGT
Language : English
Default : No
Forced : No
Color range : Limited
Color primaries : BT.709
Transfer characteristics : BT.709
Matrix coefficients : BT.709

Audio
ID : 2
Format : AC-3
Format/Info : Audio Coding 3
Commercial name : Dolby Digital
Codec ID : A_AC3
Duration : 1 h 41 min
Bit rate mode : Constant
Bit rate : 384 kb/s
Channel(s) : 6 channels
Channel layout : L R C LFE Ls Rs
Sampling rate : 48.0 kHz
Frame rate : 31.250 FPS (1536 SPF)
Bit depth : 16 bits
Compression mode : Lossy
Stream size : 278 MiB (1%)
Title : Excess.Baggage.1997.1080p.BluRay.REMUX.AVC.DD5.1-FGT
Language : English
Service kind : Complete Main
Default : Yes
Forced : No

Text
ID : 3
Format : PGS
Muxing mode : zlib
Codec ID : S_HDMV/PGS
Codec ID/Info : Picture based subtitle format used on BDs/HD-DVDs
Duration : 1 h 37 min
Bit rate : 24.6 kb/s
Count of elements : 2537
Stream size : 17.1 MiB (0%)
Title : English-PGS
Language : English
Default : Yes
Forced : No

Menu
00:00:00.000 : en:Chapter 01
00:05:51.893 : en:Chapter 02
00:09:40.204 : en:Chapter 03
00:16:35.995 : en:Chapter 04
00:27:06.666 : en:Chapter 05
00:43:48.167 : en:Chapter 06
01:03:02.820 : en:Chapter 07
01:13:05.422 : en:Chapter 08
01:25:31.167 : en:Chapter 09
01:37:27.800 : en:Chapter 10





1 个附件 售价 大小 下载 时间

Excess.Baggage.1997.1080p.BluRay.REMUX.AVC.DD5.1-FGT.torrent 0 金币 53.63K 441 次 3天前

#1楼
发帖时间:2019-06-12 16:06:21   |   回复数:3
liyouchai
超凡入圣№
谢谢楼主分享资源
3天前 #2楼
tanchoohoon
武林盟主
谢谢楼主分享
3天前 #3楼
911degrees
隐世仙人♂
非常感谢,谢谢分享
3天前 #4楼
游客组