aoloffline
超凡入圣№

[2017] [新马] [剧情] [BD-1080P] [BT下载]分贝人生 Shuttle.Life.2017.1080p.BluRay.x264.DTS-FGT 8.3GB

-->

Shuttle.Life.2017.CHINESE.1080p.BluRay.x264.DTS-FGT

◎译  名 分贝人生/ShuttleLife

◎片  名 分貝人生

◎年  代 2017

◎产  地 马来西亚

◎类  别 剧情

◎语  言 汉语普通话/粤语/马来语

◎上映日期 2017-06-21(上海电影节)/2017-10-12(马来西亚)

◎豆瓣评分 6.3/10 from 763 users

◎豆瓣链接 https://movie.douban.com/subject/26995545/

◎BT之家整理 http://www.btbtt.co

◎片  长 91分钟

◎导  演 陈胜吉 Seng Kiat Tan

◎主  演 张艾嘉 Sylvia Chang

      陈泽耀 Jack Tan

      陈彦雯 Angel Chan

      叶朝明 Jack Yap

      刘界辉 Juztin Lan

      颜薇恩 Mei Yan Gan


◎简  介


  《分贝人生》讲述了长大在大城市贫困区的阿强因一场交通以外失去了妹妹,更衍生出来自贫困环境的压力而造就的社会问题。影片透过“贫穷”反思“生活”与“生存”的微妙关联,透过贫穷家庭与社工的故事,带出贫穷问题所凸显的人性与道德的冲突以及对逆境求存、命运弄人的探讨。


Video
ID                                       : 1
Format                                   : AVC
Format/Info                              : Advanced Video Codec
Format profile                           : [email protected]
Format settings                          : CABAC / 4 Ref Frames
Format settings, CABAC                   : Yes
Format settings, ReFrames                : 4 frames
Codec ID                                 : V_MPEG4/ISO/AVC
Duration                                 : 1 h 31 min
Bit rate                                 : 11.6 Mb/s
Width                                    : 1 920 pixels
Height                                   : 1 036 pixels
Display aspect ratio                     : 1.85:1
Frame rate mode                          : Constant
Frame rate                               : 23.976 (24000/1001) FPS
Color space                              : YUV
Chroma subsampling                       : 4:2:0
Bit depth                                : 8 bits
Scan type                                : Progressive
Bits/(Pixel*Frame)                       : 0.243
Stream size                              : 7.36 GiB (88%)
Title                                    : Shuttle.Life.2017.CHINESE.1080p.BluRay.x264.DTS-FGT
Writing library                          : x264 core 148 r2705+45 bdacf7a 7mod [[email protected] X86_64]
Encoding settings                        : cabac=1 / ref=4 / deblock=1:-3:-3 / analyse=0x3:0x113 / me=umh / subme=11 / psy=1 / fade_compensate=0.00 / psy_rd=1.00:0.05 / mixed_ref=1 / me_range=32 / chroma_me=1 / trellis=2 / 8x8dct=1 / cqm=0 / deadzone=21,11 / fast_pskip=0 / chroma_qp_offset=-2 / threads=16 / lookahead_threads=2 / sliced_threads=0 / nr=0 / decimate=1 / interlaced=0 / bluray_compat=0 / constrained_intra=0 / fgo=0 / bframes=8 / b_pyramid=2 / b_adapt=2 / b_bias=0 / direct=3 / weightb=1 / open_gop=0 / weightp=2 / keyint=250 / keyint_min=23 / scenecut=40 / intra_refresh=0 / rc_lookahead=40 / rc=crf / mbtree=0 / crf=17.7000 / qcomp=0.60 / qpmin=0:0:0 / qpmax=69:69:69 / qpstep=4 / vbv_maxrate=50000 / vbv_bufsize=40000 / crf_max=0.0 / nal_hrd=none / filler=0 / ip_ratio=1.40 / pb_ratio=1.30 / aq=4:0.90 / aq-sensitivity=10.00 / aq-factor=1.00:1.00:1.00 / aq2=0 / aq3=0
Default                                  : Yes
Forced                                   : No

Audio
ID                                       : 2
Format                                   : DTS
Format/Info                              : Digital Theater Systems
Codec ID                                 : A_DTS
Duration                                 : 1 h 31 min
Bit rate mode                            : Constant
Bit rate                                 : 1 509 kb/s
Channel(s)                               : 6 channels
Channel positions                        : Front: L C R, Side: L R, LFE
Sampling rate                            : 48.0 kHz
Frame rate                               : 93.750 FPS (512 SPF)
Bit depth                                : 24 bits
Compression mode                         : Lossy
Stream size                              : 983 MiB (12%)
Title                                    : Shuttle.Life.2017.CHINESE.1080p.BluRay.x264.DTS-FGT
Language                                 : Chinese
Default                                  : Yes
Forced                                   : No

Text
ID                                       : 3
Format                                   : UTF-8
Codec ID                                 : S_TEXT/UTF8
Codec ID/Info                            : UTF-8 Plain Text
Duration                                 : 1 h 24 min
Bit rate                                 : 38 b/s
Count of elements                        : 903
Stream size                              : 24.1 KiB (0%)
Language                                 : English
Default                                  : Yes
Forced                                   : Yes

Menu
00:00:00.000                             : en:00:00:00.000
00:07:12.766                             : en:00:07:12.766
00:16:34.285                             : en:00:16:34.285
00:26:42.684                             : en:00:26:42.684
00:37:07.016                             : en:00:37:07.016
00:48:36.455                             : en:00:48:36.455
01:00:48.311                             : en:01:00:48.311
01:12:59.458                             : en:01:12:59.458




1 个附件 售价 大小 下载 时间

Shuttle.Life.2017.CHINESE.1080p.BluRay.x264.DTS-FGT[btbtt.me].torrent 0 金币 83.78K 1348 次 2018-5-22

#1楼
发帖时间:2018-05-22 20:22:06   |   回复数:3
liyouchai
隐世仙人♂
谢谢楼主分享资源
2018-5-22 #2楼
911degrees
隐世仙人♂
非常感谢,谢谢分享
2018-5-23 #3楼
blue23
隐世仙人♂
感谢楼主分享
2018-5-25 #4楼
游客组